The Ranch (2016) Season 03 S03 (1080p NF WEB DL x265 HEVC 10bit AAC 5 1 Joy) [UTR] torrent download

seeders: 566
leechers: 208
updated:
Added ago by UTRCorp ***** in TV
Torrent Downloaded 10 times.
Info Hash: 4413BDA923946ADDE1EBDC40BCA70C26083E36EC


Torrent Files

The Ranch (2016) Season 03 S03 (1080p NF WEB-DL x265 HEVC 10bit AAC 5 1 Joy) [UTR] (Size: 5.9 GB)
  The Ranch (2016) Season 03 S03 (1080p NF WEB-DL x265 HEVC 10bit AAC 5 1 Joy) [UTR] 5.9 GB

Torrent Description












Media Information

Media Information

Code:

General
Format : Matroska
Format version : Version 4 / Version 2
File size : 260 MiB
Duration : 26 min 16 s
Overall bit rate : 1 386 kb/s
Movie name : The Ranch S03E01 Starting Over Again (1080p x265 10bit Joy)
Encoded date : UTC 2018-12-31 10:47:42
Writing application : mkvmerge v24.0.0 ('Beyond The Pale') 64-bit
Writing library : libebml v1.3.6 + libmatroska v1.4.9
Writing frontend : StaxRip v1.8.2.0, a JoyBell Encode

Video
ID : 1
Format : HEVC
Format/Info : High Efficiency Video Coding
Format profile : Main [email protected]@Main
Codec ID : V_MPEGH/ISO/HEVC
Duration : 26 min 15 s
Bit rate : 1 203 kb/s
Width : 1 920 pixels
Height : 1 080 pixels
Display aspect ratio : 16:9
Frame rate mode : Constant
Frame rate : 23.976 (24000/1001) FPS
Color space : YUV
Chroma subsampling : 4:2:0
Bit depth : 10 bits
Bits/(Pixel*Frame) : 0.024
Stream size : 226 MiB (87%)
Writing library : x265 2.9+15-81373aab81df:[Windows][MSVC 1916][64 bit] 10bit
Encoding settings : cpuid=1111039 / frame-threads=3 / numa-pools=8 / wpp / no-pmode / no-pme / no-psnr / ssim / log-level=2 / input-csp=1 / input-res=1920x1080 / interlace=0 / total-frames=37785 / level-idc=0 / high-tier=1 / uhd-bd=0 / ref=4 / no-allow-non-conformance / no-repeat-headers / annexb / no-aud / no-hrd / info / hash=0 / no-temporal-layers / open-gop / min-keyint=23 / keyint=250 / gop-lookahead=0 / bframes=4 / b-adapt=2 / b-pyramid / bframe-bias=0 / rc-lookahead=80 / lookahead-slices=4 / scenecut=40 / radl=0 / no-splice / no-intra-refresh / ctu=64 / min-cu-size=8 / no-rect / no-amp / max-tu-size=32 / tu-inter-depth=1 / tu-intra-depth=1 / limit-tu=0 / rdoq-level=2 / dynamic-rd=0.00 / ssim-rd / signhide / no-tskip / nr-intra=0 / nr-inter=0 / no-constrained-intra / strong-intra-smoothing / max-merge=3 / limit-refs=3 / limit-modes / me=3 / subme=3 / merange=57 / temporal-mvp / weightp / no-weightb / no-analyze-src-pics / deblock=0:0 / sao / no-sao-non-deblock / rd=4 / early-skip / rskip / no-fast-intra / no-tskip-fast / no-cu-lossless / no-b-intra / splitrd-skip / rdpenalty=0 / psy-rd=2.05 / psy-rdoq=0.95 / no-rd-refine / no-lossless / cbqpoffs=0 / crqpoffs=0 / rc=abr / bitrate=1200 / qcomp=0.60 / qpstep=4 / stats-write=0 / stats-read=2 / cplxblur=20.0 / qblur=0.5 / ipratio=1.40 / pbratio=1.30 / aq-mode=3 / aq-strength=0.80 / cutree / zone-count=0 / no-strict-cbr / qg-size=32 / no-rc-grain / qpmax=69 / qpmin=0 / no-const-vbv / sar=0 / overscan=0 / videoformat=5 / range=0 / colorprim=2 / transfer=2 / colormatrix=2 / chromaloc=0 / display-window=0 / max-cll=0,0 / min-luma=0 / max-luma=1023 / log2-max-poc-lsb=8 / vui-timing-info / vui-hrd-info / slices=1 / no-opt-qp-pps / no-opt-ref-list-length-pps / multi-pass-opt-rps / scenecut-bias=0.05 / no-opt-cu-delta-qp / no-aq-motion / no-hdr / no-hdr-opt / no-dhdr10-opt / no-idr-recovery-sei / analysis-reuse-level=10 / scale-factor=0 / refine-intra=0 / refine-inter=0 / refine-mv=0 / limit-sao / ctu-info=0 / no-lowpass-dct / refine-mv-type=0 / copy-pic=1 / max-ausize-factor=1.0 / no-dynamic-refine / no-single-sei
Default : Yes
Forced : No

Audio
ID : 2
Format : AAC
Format/Info : Advanced Audio Codec
Format profile : HE-AAC / LC
Codec ID : A_AAC
Duration : 26 min 16 s
Bit rate : 177 kb/s
Channel(s) : 6 channels
Channel positions : Front: L C R, Side: L R, LFE
Sampling rate : 48.0 kHz / 24.0 kHz
Frame rate : 23.438 FPS (1024 spf)
Compression mode : Lossy
Delay relative to video : 31 ms
Stream size : 33.2 MiB (13%)
Language : English
Default : No
Forced : No

Subtitle #1
ID : 3
Format : UTF-8
Codec ID : S_TEXT/UTF8
Codec ID/Info : UTF-8 Plain Text
Duration : 24 min 26 s
Bit rate : 79 b/s
Count of elements : 419
Stream size : 14.2 KiB (0%)
Language : English
Default : No
Forced : No

Subtitle #2
ID : 4
Format : UTF-8
Codec ID : S_TEXT/UTF8
Codec ID/Info : UTF-8 Plain Text
Duration : 24 min 26 s
Bit rate : 84 b/s
Count of elements : 434
Stream size : 15.1 KiB (0%)
Language : English
Default : No
Forced : No

Subtitle #3
ID : 5
Format : UTF-8
Codec ID : S_TEXT/UTF8
Codec ID/Info : UTF-8 Plain Text
Duration : 24 min 26 s
Bit rate : 131 b/s
Count of elements : 424
Stream size : 23.6 KiB (0%)
Language : Arabic
Default : No
Forced : No

Subtitle #4
ID : 6
Format : UTF-8
Codec ID : S_TEXT/UTF8
Codec ID/Info : UTF-8 Plain Text
Duration : 24 min 23 s
Bit rate : 144 b/s
Count of elements : 419
Stream size : 25.8 KiB (0%)
Language : Bulgarian
Default : No
Forced : No

Subtitle #5
ID : 7
Format : UTF-8
Codec ID : S_TEXT/UTF8
Codec ID/Info : UTF-8 Plain Text
Duration : 24 min 26 s
Bit rate : 69 b/s
Count of elements : 416
Stream size : 12.4 KiB (0%)
Language : Danish
Default : No
Forced : No

Subtitle #6
ID : 8
Format : UTF-8
Codec ID : S_TEXT/UTF8
Codec ID/Info : UTF-8 Plain Text
Duration : 24 min 26 s
Bit rate : 73 b/s
Count of elements : 412
Stream size : 13.1 KiB (0%)
Language : German
Default : No
Forced : No

Subtitle #7
ID : 9
Format : UTF-8
Codec ID : S_TEXT/UTF8
Codec ID/Info : UTF-8 Plain Text
Duration : 24 min 26 s
Bit rate : 125 b/s
Count of elements : 424
Stream size : 22.4 KiB (0%)
Language : Greek
Default : No
Forced : No

Subtitle #8
ID : 10
Format : UTF-8
Codec ID : S_TEXT/UTF8
Codec ID/Info : UTF-8 Plain Text
Duration : 24 min 26 s
Bit rate : 76 b/s
Count of elements : 423
Stream size : 13.6 KiB (0%)
Language : Spanish
Default : No
Forced : No

Subtitle #9
ID : 11
Format : UTF-8
Codec ID : S_TEXT/UTF8
Codec ID/Info : UTF-8 Plain Text
Duration : 24 min 26 s
Bit rate : 71 b/s
Count of elements : 423
Stream size : 12.7 KiB (0%)
Language : Spanish
Default : No
Forced : No

Subtitle #10
ID : 12
Format : UTF-8
Codec ID : S_TEXT/UTF8
Codec ID/Info : UTF-8 Plain Text
Duration : 24 min 26 s
Bit rate : 69 b/s
Count of elements : 415
Stream size : 12.4 KiB (0%)
Language : Finnish
Default : No
Forced : No

Subtitle #11
ID : 13
Format : UTF-8
Codec ID : S_TEXT/UTF8
Codec ID/Info : UTF-8 Plain Text
Duration : 24 min 26 s
Bit rate : 65 b/s
Count of elements : 408
Stream size : 11.6 KiB (0%)
Language : French
Default : No
Forced : No

Subtitle #12
ID : 14
Format : UTF-8
Codec ID : S_TEXT/UTF8
Codec ID/Info : UTF-8 Plain Text
Duration : 24 min 26 s
Bit rate : 118 b/s
Count of elements : 424
Stream size : 21.2 KiB (0%)
Language : Hebrew
Default : No
Forced : No

Subtitle #13
ID : 15
Format : UTF-8
Codec ID : S_TEXT/UTF8
Codec ID/Info : UTF-8 Plain Text
Duration : 24 min 26 s
Bit rate : 71 b/s
Count of elements : 421
Stream size : 12.8 KiB (0%)
Language : Italian
Default : No
Forced : No

Subtitle #14
ID : 16
Format : UTF-8
Codec ID : S_TEXT/UTF8
Codec ID/Info : UTF-8 Plain Text
Duration : 24 min 26 s
Bit rate : 63 b/s
Count of elements : 384
Stream size : 11.3 KiB (0%)
Language : Japanese
Default : No
Forced : No

Subtitle #15
ID : 17
Format : UTF-8
Codec ID : S_TEXT/UTF8
Codec ID/Info : UTF-8 Plain Text
Duration : 24 min 26 s
Bit rate : 86 b/s
Count of elements : 424
Stream size : 15.4 KiB (0%)
Language : Korean
Default : No
Forced : No

Subtitle #16
ID : 18
Format : UTF-8
Codec ID : S_TEXT/UTF8
Codec ID/Info : UTF-8 Plain Text
Duration : 24 min 26 s
Bit rate : 72 b/s
Count of elements : 422
Stream size : 13.0 KiB (0%)
Language : Norwegian Bokmal
Default : No
Forced : No

Subtitle #17
ID : 19
Format : UTF-8
Codec ID : S_TEXT/UTF8
Codec ID/Info : UTF-8 Plain Text
Duration : 24 min 26 s
Bit rate : 62 b/s
Count of elements : 391
Stream size : 11.2 KiB (0%)
Language : Dutch
Default : No
Forced : No

Subtitle #18
ID : 20
Format : UTF-8
Codec ID : S_TEXT/UTF8
Codec ID/Info : UTF-8 Plain Text
Duration : 24 min 26 s
Bit rate : 70 b/s
Count of elements : 418
Stream size : 12.6 KiB (0%)
Language : Polish
Default : No
Forced : No

Subtitle #19
ID : 21
Format : UTF-8
Codec ID : S_TEXT/UTF8
Codec ID/Info : UTF-8 Plain Text
Duration : 24 min 26 s
Bit rate : 76 b/s
Count of elements : 423
Stream size : 13.8 KiB (0%)
Language : Portuguese
Default : No
Forced : No

Subtitle #20
ID : 22
Format : UTF-8
Codec ID : S_TEXT/UTF8
Codec ID/Info : UTF-8 Plain Text
Duration : 24 min 26 s
Bit rate : 73 b/s
Count of elements : 422
Stream size : 13.1 KiB (0%)
Language : Portuguese
Default : No
Forced : No

Subtitle #21
ID : 23
Format : UTF-8
Codec ID : S_TEXT/UTF8
Codec ID/Info : UTF-8 Plain Text
Duration : 24 min 26 s
Bit rate : 71 b/s
Count of elements : 423
Stream size : 12.9 KiB (0%)
Language : Romanian
Default : No
Forced : No

Subtitle #22
ID : 24
Format : UTF-8
Codec ID : S_TEXT/UTF8
Codec ID/Info : UTF-8 Plain Text
Duration : 24 min 26 s
Bit rate : 70 b/s
Count of elements : 422
Stream size : 12.6 KiB (0%)
Language : Swedish
Default : No
Forced : No

Subtitle #23
ID : 25
Format : UTF-8
Codec ID : S_TEXT/UTF8
Codec ID/Info : UTF-8 Plain Text
Duration : 24 min 26 s
Bit rate : 194 b/s
Count of elements : 424
Stream size : 34.8 KiB (0%)
Language : Thai
Default : No
Forced : No

Subtitle #24
ID : 26
Format : UTF-8
Codec ID : S_TEXT/UTF8
Codec ID/Info : UTF-8 Plain Text
Duration : 24 min 26 s
Bit rate : 73 b/s
Count of elements : 424
Stream size : 13.1 KiB (0%)
Language : Turkish
Default : No
Forced : No

Subtitle #25
ID : 27
Format : UTF-8
Codec ID : S_TEXT/UTF8
Codec ID/Info : UTF-8 Plain Text
Duration : 24 min 26 s
Bit rate : 99 b/s
Count of elements : 424
Stream size : 17.8 KiB (0%)
Language : Vietnamese
Default : No
Forced : No

Subtitle #26
ID : 28
Format : UTF-8
Codec ID : S_TEXT/UTF8
Codec ID/Info : UTF-8 Plain Text
Duration : 24 min 26 s
Bit rate : 76 b/s
Count of elements : 423
Stream size : 13.7 KiB (0%)
Language : Chinese
Default : No
Forced : No

Subtitle #27
ID : 29
Format : UTF-8
Codec ID : S_TEXT/UTF8
Codec ID/Info : UTF-8 Plain Text
Duration : 24 min 26 s
Bit rate : 70 b/s
Count of elements : 424
Stream size : 12.6 KiB (0%)
Language : Chinese
Default : No
Forced : No



Source Information

Code:

Release:
The.Ranch.2016.S03.Part1.1080p.NF.WEB.DD5.1.x264-NTb[rartv] (34.8 GB)
The.Ranch.S03.PART.2.1080p.WEB.x264-STRiFE[rarbg] (14.8 GB)



We have no issue with individuals posting or re-uploading our torrents on a platform we aren't on. However, if this is something you'd like to do, please do so in a 'as-is' format. We ask that you do not create a new torrent, include all descriptions you see above including the UTR logo, tags, notes and screenshots. If you'd like to become a permanent poster on a website we don't post to, feel free to get in contact with a UniTeam member.



Related Torrents

torrent name size age seed leech
372.1 MB 1 minute 80 40
816.3 MB 3 minutes 546 478
2.0 GB 3 minutes 648 369
1.5 GB 3 minutes 296 375
184.9 MB 3 minutes 176 62

Sharing Widget


Download torrent
5.9 GB
seeders:1214
leechers:386
The Ranch (2016) Season 03 S03 (1080p NF WEB-DL x265 HEVC 10bit AAC 5 1 Joy) [UTR]



To share this torrent use the code below and insert it into comments, status messages, forum posts or your signature.

Torrent: The Ranch (2016) Season 03 S03 (1080p NF WEB-DL x265 HEVC 10bit AAC 5 1 Joy) [UTR]

Comments

Latest Searches